[Login] or [Signup]
Login
Username:
Password:
[Signup]
[Recover Account]


Poll


You must be logged in to view polls



Torrent Details For "Razor (Veedevadu) 2018 Hindi Dubbed HDRip 720p AAC x264 Full South Movie Hindi [ [800MB]"

Razor (Veedevadu) 2018 Hindi Dubbed HDRip 720p AAC x264 Full South Movie Hindi [ [800MB]

Download this torrent | Magnet Download
Health:
Seeds: 1,440
Leechers: 1,144
Completed: 1,831 
Last Checked: 06-12-2018 13:07:51
External Torrent
Update Stats
Download Magnet


Poster


iMDB
Imdb Picture Title: Veedevadu
Year: 2017
Runtime: 125 minutes
Language: Telugu, Tamil
Country: India
All Genres: Thriller
Plot Outline: A Kabaddi player ends up in a prison after being accused of killing his girlfriend.
Director: Tatineni Satya

Cast:
Esha Gupta as
Sachiin Joshi as


Watch-Free-HD     Download

Details
Name:Razor (Veedevadu) 2018 Hindi Dubbed HDRip 720p AAC x264 Full South Movie Hindi [ [800MB]
Description:
This Movie Download Link :-  http://skymovieshd.org
***********************************



Razor (Veedevadu) 2018 Hindi Dubbed HDRip 720p AAC x264 [SkyMoviesHD.org].mkv
Format                      : Matroska
Format version              : Version 4 / Version 2
File size                   : 739 MiB
Duration                    : 1 h 56 min
Overall bit rate            : 889 kb/s
Movie name                  : SkyMoviesHD.org
Encoded date                : UTC 2018-12-05 17:00:37
Writing application         : mkvmerge v28.2.0 ('The Awakening') 64-bit
Writing library             : libebml v1.3.6 + libmatroska v1.4.9

Video
ID                          : 1
Format                      : AVC
Format/Info                 : Advanced Video Codec
Format profile              : [email protected]
Format settings             : 2 Ref Frames
Format settings, CABAC      : No
Format settings, ReFrames   : 2 frames
Codec ID                    : V_MPEG4/ISO/AVC
Duration                    : 1 h 55 min
Bit rate                    : 768 kb/s
Width                       : 1 280 pixels
Height                      : 720 pixels
Display aspect ratio        : 16:9
Frame rate mode             : Constant
Frame rate                  : 24.000 FPS
Color space                 : YUV
Chroma subsampling          : 4:2:0
Bit depth                   : 8 bits
Scan type                   : Progressive
Bits/(Pixel*Frame)          : 0.035
Stream size                 : 632 MiB (85%)
Writing library             : x264 core 142
Encoding settings           : cabac=0 / ref=2 / deblock=1:0:0 / analyse=0x1:0x111 / me=hex / subme=4 / psy=1 / psy_rd=1.00:0.00 / mixed_ref=0 / me_range=16 / chroma_me=1 / trellis=1 / 8x8dct=0 / cqm=0 / deadzone=21,11 / fast_pskip=1 / chroma_qp_offset=0 / threads=48 / lookahead_threads=5 / sliced_threads=0 / nr=0 / decimate=1 / interlaced=0 / bluray_compat=0 / constrained_intra=0 / bframes=0 / weightp=0 / keyint=250 / keyint_min=24 / scenecut=40 / intra_refresh=0 / rc_lookahead=20 / rc=abr / mbtree=1 / bitrate=768 / ratetol=1.0 / qcomp=0.60 / qpmin=0 / qpmax=69 / qpstep=4 / ip_ratio=1.40 / aq=1:1.00
Default                     : Yes
Forced                      : No

Audio
ID                          : 2
Format                      : AAC
Format/Info                 : Advanced Audio Codec
Format profile              : LC
Codec ID                    : A_AAC-2
Duration                    : 1 h 55 min
Bit rate                    : 128 kb/s
Channel(s)                  : 2 channels
Channel positions           : Front: L R
Sampling rate               : 44.1 kHz
Frame rate                  : 43.066 FPS (1024 SPF)
Compression mode            : Lossy
Delay relative to video     : -23 ms
Stream size                 : 106 MiB (14%)
Default                     : Yes
Forced                      : No

Text
ID                          : 3
Format                      : ASS
Codec ID                    : S_TEXT/ASS
Codec ID/Info               : Advanced Sub Station Alpha
Duration                    : 1 h 53 min
Bit rate                    : 0 b/s
Count of elements           : 4
Compression mode            : Lossless
Stream size                 : 268 Bytes (0%)
Default                     : Yes
Forced                      : No











A to Z HD Movies Download Link :-  http://skymovieshd.org
***********************************
Category:Movies > South Dub
Lang:Hindi
Total Size:739.28 MB
Info Hash:432b11597eef3e1119b520727548d25c037e8683
Added By:Hdrex
Date Added:05-12-2018 17:27:32
Views:2,160
Hits:144

Download Torrent

Ratings:Not Yet Rated (Log in to rate it)


Tracker:
Udp://tracker.coppersurfer.tk:6969/announce


File List: 


Comments

No comments still posted

Powered by 10 Hamsters v2-svn -|- Page Generated In 1.628890 secs.
-|- RSS FEED
Theme By: Nikkbu