[Login] or [Signup]
Login
Username:
Password:
[Signup]
[Recover Account]


Poll


You must be logged in to view polls



Torrent Details For "Sabse Bada Chaalbaaz (Bombaat) (2018) 720p Hindi Dubbed WEBHD x264 AAC 500MB [MovCr]"

Sabse Bada Chaalbaaz (Bombaat) (2018) 720p Hindi Dubbed WEBHD x264 AAC 500MB [MovCr]

Download this torrent | Magnet Download
Health:
Seeds: 0
Leechers: 0
Completed:
Last Checked: 03-12-2018 05:10:42
External Torrent
Update Stats
Download Magnet


Poster


iMDB
Title: Bombaat
Year: 2008
Votes: 21
Rating: 5.1/10
Language: Kannada
Tagline: Idu Ganeshana Aata.
Director: D. Rajendra Babu
Writing By: Janardhan Maharshi,
Produced By: Rockline Venkatesh,
Music: Mano Murthy
Cast:
Ganesh as Anand
Ramya as Shalini
Avinash as
Rahul Dev as
Gurudutt as
Adi Lokesh as
Vinaya Prasad as
Mukesh Rishi as
Shobharaj as


Watch-Free-HD     Download

Details
Name:Sabse Bada Chaalbaaz (Bombaat) (2018) 720p Hindi Dubbed WEBHD x264 AAC 500MB [MovCr]
Description:
Our Site   www.movcr.cc


Sabse Bada Chaalbaaz (Bombaat) (2018) 720p Hindi Dubbed WEBHD x264 AAC 500MB [MovCr]



 http://www.imdb.com/title/tt3171746/

 


General
Unique ID                                : 292262977405046259303934894941588709612 (0xDBDFCD4EB17DD9FC3564C05A90F060EC)
Complete name                            : www.MovCr.cc - Sabse Bada Chaalbaaz (Bombaat) (2018) 720p Hindi Dubbed WEBHD x264 AAC 500MB [MovCr].mkv
Format                                   : Matroska
Format version                           : Version 4 / Version 2
File size                                : 493 MiB
Duration                                 : 1 h 50 min
Overall bit rate                         : 622 kb/s
Movie name                               : www.MovCr.cc
Encoded date                             : UTC 2018-12-03 05:02:36
Writing application                      : mkvmerge v26.0.0 ('In The Game') 64-bit
Writing library                          : libebml v1.3.6 + libmatroska v1.4.9

Video
ID                                       : 1
Format                                   : AVC
Format/Info                              : Advanced Video Codec
Format profile                           : [email protected]
Format settings                          : CABAC / 3 Ref Frames
Format settings, CABAC                   : Yes
Format settings, RefFrames               : 3 frames
Codec ID                                 : V_MPEG4/ISO/AVC
Duration                                 : 1 h 50 min
Bit rate                                 : 492 kb/s
Width                                    : 1 280 pixels
Height                                   : 720 pixels
Display aspect ratio                     : 16:9
Frame rate mode                          : Constant
Frame rate                               : 25.000 FPS
Color space                              : YUV
Chroma subsampling                       : 4:2:0
Bit depth                                : 8 bits
Scan type                                : Progressive
Bits/(Pixel*Frame)                       : 0.021
Stream size                              : 390 MiB (79%)
Title                                    : www.MovCr.cc
Default                                  : Yes
Forced                                   : No
Color range                              : Limited
Color primaries                          : BT.709
Transfer characteristics                 : BT.709
Matrix coefficients                      : BT.709

Audio
ID                                       : 2
Format                                   : AAC
Format/Info                              : Advanced Audio Codec
Format profile                           : LC
Codec ID                                 : A_AAC-2
Duration                                 : 1 h 50 min
Bit rate                                 : 128 kb/s
Channel(s)                               : 2 channels
Channel positions                        : Front: L R
Sampling rate                            : 44.1 kHz
Frame rate                               : 43.066 FPS (1024 SPF)
Compression mode                         : Lossy
Stream size                              : 102 MiB (21%)
Title                                    : www.MovCr.cc
Language                                 : Hindi
Default                                  : Yes
Forced                                   : No



 
 
 
 
 
 
 
Category:Movies > South Dub
Lang:Hindi
Total Size:493.31 MB
Info Hash:220d9095e36825af27816470799acb61a7e49634
Added By:MAZE
Date Added:03-12-2018 05:10:42
Views:828
Hits:20

Download Torrent

Ratings:Not Yet Rated (Log in to rate it)


Tracker:
udp://tracker.coppersurfer.tk:6969/announce


File List: 


Comments

No comments still posted

Powered by 10 Hamsters v2-svn -|- Page Generated In 1.241953 secs.
-|- RSS FEED
Theme By: Nikkbu